Filecrypt zeigt vereinzelt Files als "n/a". Die Downloads sind trotzdem komplett.

DNS SERVER AENDERNum der staatlichen Zensur zu umgehen. Sollten wir von eurem Provider geseprrt werden, nutzt den TOR BROWSER oder ändert euren DNS SERVER.

Filmwünsche können bei uns im Forum abgegeben werden

Wir Speichern Nicht




 
 
 
Top Releases
Mandy.2018.MULTi.COMPLETE.BL...
Zoe.2018.German.AC3.DL.1080p...
Herrliche.Zeiten.2018.German...
Skyscraper.2018.German.AC3.D...
Mandy.2018.German.720p.BluRa...
Mandy.2018.German.DL.1080p.B...
Die.Farbe.des.Horizonts.2018...
Die.Farbe.des.Horizonts.2018...
Die.Farbe.des.Horizonts.2018...
Predestination.2014.German.A...

Cinedubs
Mission.Impossible.Fallout.G...
Mission.Impossible.Fallout.G...
Sicario.2.2018.German.DL.AC3...
Juliet.Naked.2018.GERMAN.DL....
Juliet.Naked.2018.GERMAN.DL....
10x10.2018.German.AC3D.DL.10...
Predator.Upgrade.German.DL.A...
Predator.Upgrade.German.DL.A...
10×10.2018.German.AC3D.DL.1...
10×10.2018.German.AC3D.DL.7...

Neuerscheinungen 2017-18
O.Sexuelles.Verlangen.2017.D...
O.Sexuelles.Verlangen.2017.G...
O.Sexuelles.Verlangen.2017.G...
Christmas.With.A.View.2018.G...
Christmas.With.A.View.2018.G...
Our.Evil.2017.GERMAN.1080p.B...
Our.Evil.2017.GERMAN.720p.Bl...
Bent.Korruption.kennt.keine....
Bent.Korruption.kennt.keine....
Slender.Man.German.DL.AC3.Du...

XXX
Teens.On.Sex.Carnage.9.XXX.1...
Teens.On.Sex.Carnage.9.XXX.7...
StepSiblingsCaught.18.10.29....
SweetSinner.18.10.30.Syren.D...
Shoplyfter.18.10.31.Scarlett...
VickyAtHome.18.10.24.Woke.Up...
SweetheartVideo.18.10.29.Apr...
The.Flesh.Game.XXX.1080p.WEB...
SneakySex.18.10.31.Bonnie.Ro...
TeensLikeItBig.18.10.28.Rebe...
GirlsDoPorn.E475.18.Years.Ol...
LustyGrandmas.18.02.01.Malya...
The.Flesh.Game.XXX.720p.WEBR...
Shinnyu.Shain.No.Oshigoto.10...
GirlsDoPorn.E472.20.Years.Ol...
TeenFidelity.E341.Kenzie.Kai...
VIPissy.18.10.29.Claudia.Mac...
LustyGrandmas.18.01.25.Mimi....
Spizoo.18.10.29.Infexxted.XX...
TeenPies.18.10.31.Avery.Moon...

3D
Skyscraper.3D.2018.MULTi.COM...
Ant-Man.And.The.Wasp.3D.2018...
Ant.Man.and.the.Wasp.3D.2018...
Die.Unglaublichen.2.3D.2018....
Die.Unglaublichen.2.2018.3D....
Die.Unglaublichen.2.2018.3D....
Sharknado.6.The.Last.One.3D....
Deep.Kleine.Helden.der.Tiefs...
Deep.3D.2017.MULTI.COMPLETE....
Detective.Dee.und.die.Legend...
Detective.Dee.und.die.Legend...
Skyscraper.3D.German.DL.AC3....
Ant-Man.and.the.Wasp.2018.3D...
Jurassic.World.Das.gefallene...
Jurassic.World.Das.gefallene...

Old_Stuff
Detective.Dee.und.das.Geheim...
Detective.Dee.Und.Der.Fluch....
Ghost.Rider.Spirit.of.Vengea...
Species.IV.Das.Erwachen.2007...
Species.IV.Das.Erwachen.2007...
Hotel.Transsilvanien.2012.Ge...
The.Dead.2010.German.DL.1080...
The.Dead.2.India.2013.German...
Britney.Spears.Live.The.Femm...
Buffy.The.Vampire.Slayer.199...
IMAX.Ride.Around.The.World.2...
Schimanski.-.Duisburg.Ruhror...
Akte.X.S02.German.DTS.DL.108...
How.I.Met.Your.Mother.S02.Ge...
Akte.X.S01.German.DTS.DL.108...

Filme
Die.Truman.Show.1998.German....
Crocodile.Dundee.Extended.Cu...
Valley.Girl.Das.Maedchen.und...
TiMER.2009.German.DL.1080p.B...
Time.to.Kill.1989.German.108...
Time.Rush.2016.German.DL.108...
Time.for.Crime.Zeit.fuer.Bet...
Time.Bandits.German.1981.108...
Wrong.Side.of.Town.2010.Germ...
Time.and.Tide.2000.German.10...
Tigerman.1990.German.DL.1080...
Chinesisches.Roulette.1976.G...
Falling.Up.Liebe.oeffnet.Tue...
Spider-Man.2002.UHD2BD.DL.10...
Der.grosse.Trip.Wild.2014.Ge...
Untote.wie.wir.Man.ist.so.to...
Cliffhanger.Nur.die.Starken....
Moderne.Zeiten.1936.German.D...
Der.Krieg.der.Knoepfe.1962.U...
Rote.Laterne.1991.German.108...
The.Good.Doctor.S02.German.D...
The.Good.Doctor.S02.German.D...
Das.Leben.Ein.Sechserpack.19...
Thoda.Pyaar.Thoda.2008.Germa...

 
 
Crocodile.Dundee.Extended.Cut.1986.German.AC3D.DL.720p.Custom.BluRay.x265-FuN

Jahr: 1988
Genre: Komödie , Abenteuer
Sprache: Deutsch AC3 | Englisch AC3
Laufzeit: 1h 44mn
Bitrate: 1 820 Kbps
Format: MKV
Größe: 1.33 GiB
Release:

Beschreibung:

Der australische Krokodiljäger Mick "Crocodile" Dundee (Paul Hogan) kehrt seiner Heimat den Rücken, um seiner Geliebten Sue (Linda Kozlowski) in den Großstadtdschungel New Yorks zu folgen. Crocodile Dundee mischt das Establishment in Manhattan mit seiner rustikalen Art ganz schön auf, hat aber auch gewisse Eingewöhnungsprobleme. Im Big Apple gehen die Uhren halt doch anders als im Busch Australiens. Das neue Leben in der Großstadt ist nicht so ganz nach dem Geschmack des Naturburschen Crocodile Dundee, auch wenn er sich alle Mühe gibt, die Zeit mit angenehmen Dingen wie der Tierjagd zu verbringen. Aber das Schicksal hält neuen Schwung für sein Leben bereit, denn Sue wird in eine gefährliche Mordangelegenheit um den Drogenboss Rico (Hechter Ubarry) verwickelt. Jetzt muss Dundee seiner Geliebten beistehen, und die Gangster in die Schranken weisen. Dazu lockt er sie auf das Terrain, in dem er zu Hause ist, den australischen Busch.




Format                                   : Matroska
Format version                           : Version 4 / Version 2
File size                                : 1.33 GiB
Duration                                 : 1h 44mn
Overall bit rate                         : 1 820 Kbps
Movie name                               : Crocodile Dundee 1986 Extended Cut AC3D 720p Custom Bluray x264 - marban
Encoded date                             : UTC 2018-11-06 01:02:44
Writing application                      : mkvmerge v20.0.0 ('I Am The Sun') 64-bit
Writing library                          : libebml v1.3.5 + libmatroska v1.4.8
DURATION                                 : 00:51:49.964000000
NUMBER_OF_FRAMES                         : 53
NUMBER_OF_BYTES                          : 1949
_STATISTICS_WRITING_APP                  : mkvmerge v20.0.0 ('I Am The Sun') 64-bit
_STATISTICS_WRITING_DATE_UTC             : 2018-11-06 01:02:44
_STATISTICS_TAGS                         : BPS DURATION NUMBER_OF_FRAMES NUMBER_OF_BYTES

Video
ID                                       : 1
Format                                   : HEVC
Format/Info                              : High Efficiency Video Coding
Format profile                           : Main@L3.1
Codec ID                                 : V_MPEGH/ISO/HEVC
Duration                                 : 1h 44mn
Bit rate                                 : 1 144 Kbps
Width                                    : 1 280 pixels
Height                                   : 544 pixels
Display aspect ratio                     : 2.35:1
Frame rate mode                          : Constant
Frame rate                               : 23.976 fps
Color space                              : YUV
Chroma subsampling                       : 4:2:0
Bit depth                                : 8 bits
Bits/(Pixel*Frame)                       : 0.068
Stream size                              : 855 MiB (63%)
Writing library                          : x265 2.6:[Windows][GCC 7.3.0][64 bit] 8bit+10bit+12bit
Encoding settings                        : cpuid=1173503 / frame-threads=3 / numa-pools=8 / wpp / no-pmode / no-pme / no-psnr / no-ssim / log-level=2 / input-csp=1 / input-res=1280x544 / interlace=0 / total-frames=0 / level-idc=0 / high-tier=1 / uhd-bd=0 / ref=3 / no-allow-non-conformance / no-repeat-headers / annexb / no-aud / no-hrd / info / hash=0 / no-temporal-layers / open-gop / min-keyint=24 / keyint=240 / bframes=4 / b-adapt=0 / b-pyramid / bframe-bias=0 / rc-lookahead=15 / lookahead-slices=0 / scenecut=40 / no-intra-refresh / ctu=64 / min-cu-size=8 / no-rect / no-amp / max-tu-size=32 / tu-inter-depth=1 / tu-intra-depth=1 / limit-tu=0 / rdoq-level=0 / dynamic-rd=0.00 / no-ssim-rd / signhide / no-tskip / nr-intra=0 / nr-inter=0 / no-constrained-intra / no-strong-intra-smoothing / max-merge=2 / limit-refs=3 / no-limit-modes / me=1 / subme=2 / merange=57 / temporal-mvp / weightp / no-weightb / no-analyze-src-pics / deblock=0:0 / no-sao / no-sao-non-deblock / rd=2 / no-early-skip / rskip / fast-intra / no-tskip-fast / no-cu-lossless / no-b-intra / no-splitrd-skip / rdpenalty=0 / psy-rd=2.00 / psy-rdoq=0.00 / no-rd-refine / analysis-reuse-mode=0 / no-lossless / cbqpoffs=0 / crqpoffs=0 / rc=crf / crf=20.0 / qcomp=0.60 / qpstep=4 / stats-write=0 / stats-read=0 / ipratio=1.40 / pbratio=1.30 / aq-mode=1 / aq-strength=1.00 / cutree / zone-count=0 / no-strict-cbr / qg-size=32 / no-rc-grain / qpmax=69 / qpmin=0 / no-const-vbv / sar=1 / overscan=0 / videoformat=5 / range=0 / colorprim=1 / transfer=1 / colormatrix=1 / chromaloc=0 / display-window=0 / max-cll=0,0 / min-luma=0 / max-luma=255 / log2-max-poc-lsb=8 / vui-timing-info / vui-hrd-info / slices=1 / no-opt-qp-pps / no-opt-ref-list-length-pps / no-multi-pass-opt-rps / scenecut-bias=0.05 / no-opt-cu-delta-qp / no-aq-motion / no-hdr / no-hdr-opt / no-dhdr10-opt / analysis-reuse-level=5 / scale-factor=0 / refine-intra=0 / refine-inter=0 / refine-mv=0 / no-limit-sao / ctu-info=0 / no-lowpass-dct / refine-mv-type=0 / copy-pic=1
Default                                  : Yes
Forced                                   : No
DURATION                                 : 01:44:28.930000000
NUMBER_OF_FRAMES                         : 150304
NUMBER_OF_BYTES                          : 922894752
_STATISTICS_WRITING_APP                  : mkvmerge v20.0.0 ('I Am The Sun') 64-bit
_STATISTICS_WRITING_DATE_UTC             : 2018-11-06 01:02:44
_STATISTICS_TAGS                         : BPS DURATION NUMBER_OF_FRAMES NUMBER_OF_BYTES

Audio #1
ID                                       : 2
Format                                   : AC-3
Format/Info                              : Audio Coding 3
Mode extension                           : CM (complete main)
Format settings, Endianness              : Big
Codec ID                                 : A_AC3
Duration                                 : 1h 44mn
Bit rate mode                            : Constant
Bit rate                                 : 256 Kbps
Channel(s)                               : 2 channels
Channel positions                        : Front: L R
Sampling rate                            : 48.0 KHz
Bit depth                                : 16 bits
Compression mode                         : Lossy
Delay relative to video                  : 20ms
Stream size                              : 191 MiB (14%)
Title                                    : Stereo
Language                                 : German
Default                                  : Yes
Forced                                   : No
DURATION                                 : 01:44:28.800000000
NUMBER_OF_FRAMES                         : 195900
NUMBER_OF_BYTES                          : 200601600
_STATISTICS_WRITING_APP                  : mkvmerge v20.0.0 ('I Am The Sun') 64-bit
_STATISTICS_WRITING_DATE_UTC             : 2018-11-06 01:02:44
_STATISTICS_TAGS                         : BPS DURATION NUMBER_OF_FRAMES NUMBER_OF_BYTES

Audio #2
ID                                       : 3
Format                                   : AC-3
Format/Info                              : Audio Coding 3
Mode extension                           : CM (complete main)
Format settings, Endianness              : Big
Codec ID                                 : A_AC3
Duration                                 : 1h 44mn
Bit rate mode                            : Constant
Bit rate                                 : 384 Kbps
Channel(s)                               : 2 channels
Channel positions                        : Front: L R
Sampling rate                            : 48.0 KHz
Bit depth                                : 16 bits
Compression mode                         : Lossy
Stream size                              : 287 MiB (21%)
Title                                    : Stereo
Language                                 : English
Default                                  : No
Forced                                   : No
DURATION                                 : 01:44:28.928000000
NUMBER_OF_FRAMES                         : 195904
NUMBER_OF_BYTES                          : 300908544
_STATISTICS_WRITING_APP                  : mkvmerge v20.0.0 ('I Am The Sun') 64-bit
_STATISTICS_WRITING_DATE_UTC             : 2018-11-06 01:02:44
_STATISTICS_TAGS                         : BPS DURATION NUMBER_OF_FRAMES NUMBER_OF_BYTES



Download:
Share Online Share OnlineShare OnlineShare Online
 

Kommentare