Filecrypt zeigt vereinzelt Files als "n/a". Die Downloads sind trotzdem komplett.

DNS SERVER AENDERNum der staatlichen Zensur zu umgehen. Sollten wir von eurem Provider geseprrt werden, nutzt den TOR BROWSER oder ändert euren DNS SERVER.

Filmwünsche können bei uns im Forum abgegeben werden

Wir Speichern Nicht




 
 
 
Top Releases
Mandy.2018.MULTi.COMPLETE.BL...
Zoe.2018.German.AC3.DL.1080p...
Herrliche.Zeiten.2018.German...
Skyscraper.2018.German.AC3.D...
Mandy.2018.German.720p.BluRa...
Mandy.2018.German.DL.1080p.B...
Die.Farbe.des.Horizonts.2018...
Die.Farbe.des.Horizonts.2018...
Die.Farbe.des.Horizonts.2018...
Predestination.2014.German.A...

Cinedubs
Mission.Impossible.Fallout.G...
Mission.Impossible.Fallout.G...
Sicario.2.2018.German.DL.AC3...
Juliet.Naked.2018.GERMAN.DL....
Juliet.Naked.2018.GERMAN.DL....
10x10.2018.German.AC3D.DL.10...
Predator.Upgrade.German.DL.A...
Predator.Upgrade.German.DL.A...
10×10.2018.German.AC3D.DL.1...
10×10.2018.German.AC3D.DL.7...

Neuerscheinungen 2017-18
O.Sexuelles.Verlangen.2017.D...
O.Sexuelles.Verlangen.2017.G...
O.Sexuelles.Verlangen.2017.G...
Christmas.With.A.View.2018.G...
Christmas.With.A.View.2018.G...
Our.Evil.2017.GERMAN.1080p.B...
Our.Evil.2017.GERMAN.720p.Bl...
Bent.Korruption.kennt.keine....
Bent.Korruption.kennt.keine....
Slender.Man.German.DL.AC3.Du...

XXX
Teens.On.Sex.Carnage.9.XXX.1...
Teens.On.Sex.Carnage.9.XXX.7...
StepSiblingsCaught.18.10.29....
SweetSinner.18.10.30.Syren.D...
Shoplyfter.18.10.31.Scarlett...
VickyAtHome.18.10.24.Woke.Up...
SweetheartVideo.18.10.29.Apr...
The.Flesh.Game.XXX.1080p.WEB...
SneakySex.18.10.31.Bonnie.Ro...
TeensLikeItBig.18.10.28.Rebe...
GirlsDoPorn.E475.18.Years.Ol...
LustyGrandmas.18.02.01.Malya...
The.Flesh.Game.XXX.720p.WEBR...
Shinnyu.Shain.No.Oshigoto.10...
GirlsDoPorn.E472.20.Years.Ol...
TeenFidelity.E341.Kenzie.Kai...
VIPissy.18.10.29.Claudia.Mac...
LustyGrandmas.18.01.25.Mimi....
Spizoo.18.10.29.Infexxted.XX...
TeenPies.18.10.31.Avery.Moon...

3D
Skyscraper.3D.2018.MULTi.COM...
Ant-Man.And.The.Wasp.3D.2018...
Ant.Man.and.the.Wasp.3D.2018...
Die.Unglaublichen.2.3D.2018....
Die.Unglaublichen.2.2018.3D....
Die.Unglaublichen.2.2018.3D....
Sharknado.6.The.Last.One.3D....
Deep.Kleine.Helden.der.Tiefs...
Deep.3D.2017.MULTI.COMPLETE....
Detective.Dee.und.die.Legend...
Detective.Dee.und.die.Legend...
Skyscraper.3D.German.DL.AC3....
Ant-Man.and.the.Wasp.2018.3D...
Jurassic.World.Das.gefallene...
Jurassic.World.Das.gefallene...

Old_Stuff
Detective.Dee.und.das.Geheim...
Detective.Dee.Und.Der.Fluch....
Ghost.Rider.Spirit.of.Vengea...
Species.IV.Das.Erwachen.2007...
Species.IV.Das.Erwachen.2007...
Hotel.Transsilvanien.2012.Ge...
The.Dead.2010.German.DL.1080...
The.Dead.2.India.2013.German...
Britney.Spears.Live.The.Femm...
Buffy.The.Vampire.Slayer.199...
IMAX.Ride.Around.The.World.2...
Schimanski.-.Duisburg.Ruhror...
Akte.X.S02.German.DTS.DL.108...
How.I.Met.Your.Mother.S02.Ge...
Akte.X.S01.German.DTS.DL.108...

Filme
Die.Truman.Show.1998.German....
Crocodile.Dundee.Extended.Cu...
Valley.Girl.Das.Maedchen.und...
TiMER.2009.German.DL.1080p.B...
Time.to.Kill.1989.German.108...
Time.Rush.2016.German.DL.108...
Time.for.Crime.Zeit.fuer.Bet...
Time.Bandits.German.1981.108...
Wrong.Side.of.Town.2010.Germ...
Time.and.Tide.2000.German.10...
Tigerman.1990.German.DL.1080...
Chinesisches.Roulette.1976.G...
Falling.Up.Liebe.oeffnet.Tue...
Spider-Man.2002.UHD2BD.DL.10...
Der.grosse.Trip.Wild.2014.Ge...
Untote.wie.wir.Man.ist.so.to...
Cliffhanger.Nur.die.Starken....
Moderne.Zeiten.1936.German.D...
Der.Krieg.der.Knoepfe.1962.U...
Rote.Laterne.1991.German.108...
The.Good.Doctor.S02.German.D...
The.Good.Doctor.S02.German.D...
Das.Leben.Ein.Sechserpack.19...
Thoda.Pyaar.Thoda.2008.Germa...

 
 
O.Sexuelles.Verlangen.2017.GERMAN.1080p.BluRay.x264-UNiVERSUM

Jahr: 2017
Genre: Drama, Thriller
Sprache: Deutsch DTS
Laufzeit: 1h 34mn
Bitrate: 7 779 Kbps
Format: MKV
Größe: 5.16 GiB
Release:

Beschreibung:

Die attraktive Dolmetscherin Nina (Anna Chipovskaya) führt in Moskau ein bescheidenes Leben mit Linguistik-Professor Sascha (Aleksey Chadov), der sie anhimmelt. Doch bei einem Übersetzungs-Job lernt Nina den Anwalt Sergey (Dmitriy Pevtsov) kennen. Dieser geht Nina fortan nicht mehr aus dem Kopf, sie entwickelt ein nahezu zügelloses Verlangen zu dem Unbekannten. Gleichzeitig zerrt der Alltag mit Sascha, das Zusammenleben in einer winzigen Bude und der ständige Streit um die drückende Hypothek für eine neue Wohnung an ihren Nerven. Hals über Kopf stürzt sich Nina in eine leidenschaftliche Affäre mit Sergey, als gäbe es kein morgen.



Complete name                            : o.sexuelles.verlangen.2017.german.1080p.bluray.x264-universum.mkv
Format                                   : Matroska
Format version                           : Version 4 / Version 2
File size                                : 5.16 GiB
Duration                                 : 1h 34mn
Overall bit rate                         : 7 779 Kbps
Encoded date                             : UTC 2018-11-15 17:01:19
Writing application                      : mkvmerge v7.9.0 ('Birds') 64bit
Writing library                          : libebml v1.3.1 + libmatroska v1.4.2
DURATION                                 : 01:33:46.545000000
NUMBER_OF_FRAMES                         : 3
NUMBER_OF_BYTES                          : 41
_STATISTICS_WRITING_APP                  : mkvmerge v7.9.0 ('Birds') 64bit
_STATISTICS_WRITING_DATE_UTC             : 2018-11-15 17:01:19
_STATISTICS_TAGS                         : BPS DURATION NUMBER_OF_FRAMES NUMBER_OF_BYTES

Video
ID                                       : 1
Format                                   : AVC
Format/Info                              : Advanced Video Codec
Format profile                           : High@L4.1
Format settings, CABAC                   : Yes
Format settings, ReFrames                : 4 frames
Codec ID                                 : V_MPEG4/ISO/AVC
Duration                                 : 1h 34mn
Bit rate                                 : 6 856 Kbps
Width                                    : 1 920 pixels
Height                                   : 1 040 pixels
Display aspect ratio                     : 1.85:1
Frame rate mode                          : Constant
Frame rate                               : 24.000 fps
Color space                              : YUV
Chroma subsampling                       : 4:2:0
Bit depth                                : 8 bits
Scan type                                : Progressive
Bits/(Pixel*Frame)                       : 0.143
Stream size                              : 4.55 GiB (88%)
Writing library                          : x264 core 157 r2935 545de2f
Encoding settings                        : cabac=1 / ref=4 / deblock=1:-1:-1 / analyse=0x3:0x133 / me=umh / subme=8 / psy=1 / psy_rd=1.00:0.15 / mixed_ref=1 / me_range=16 / chroma_me=1 / trellis=2 / 8x8dct=1 / cqm=0 / deadzone=21,11 / fast_pskip=0 / chroma_qp_offset=-3 / threads=18 / lookahead_threads=3 / sliced_threads=0 / nr=0 / decimate=1 / interlaced=0 / bluray_compat=0 / constrained_intra=0 / bframes=3 / b_pyramid=2 / b_adapt=1 / b_bias=0 / direct=3 / weightb=1 / open_gop=0 / weightp=2 / keyint=250 / keyint_min=24 / scenecut=40 / intra_refresh=0 / rc_lookahead=40 / rc=crf / mbtree=1 / crf=20.0 / qcomp=0.60 / qpmin=10 / qpmax=69 / qpstep=4 / ip_ratio=1.40 / aq=1:1.00
Language                                 : German
Default                                  : Yes
Forced                                   : No
DURATION                                 : 01:34:55.042000000
NUMBER_OF_FRAMES                         : 136681
NUMBER_OF_BYTES                          : 4992810140
_STATISTICS_WRITING_APP                  : mkvmerge v7.9.0 ('Birds') 64bit
_STATISTICS_WRITING_DATE_UTC             : 2018-11-15 17:01:19
_STATISTICS_TAGS                         : BPS DURATION NUMBER_OF_FRAMES NUMBER_OF_BYTES

Audio
ID                                       : 2
Format                                   : DTS
Format/Info                              : Digital Theater Systems
Mode                                     : 16
Format settings, Endianness              : Big
Codec ID                                 : A_DTS
Duration                                 : 1h 34mn
Bit rate mode                            : Constant
Bit rate                                 : 768 Kbps
Channel(s)                               : 6 channels
Channel positions                        : Front: L C R, Side: L R, LFE
Sampling rate                            : 48.0 KHz
Bit depth                                : 24 bits
Compression mode                         : Lossy
Stream size                              : 522 MiB (10%)
Title                                    : DTS
Language                                 : German
Default                                  : Yes
Forced                                   : No

Text
ID                                       : 3
Format                                   : UTF-8
Codec ID                                 : S_TEXT/UTF8
Codec ID/Info                            : UTF-8 Plain Text
Title                                    : Forced
Language                                 : German
Default                                  : Yes
Forced                                   : No


Download:
Share Online Share OnlineShare OnlineShare Online
 

Kommentare