The Grand Tour (73) | El Principe Dragon HDTV | The Ninth Passenger
 


 

Filecrypt zeigt vereinzelt Files als "n/a". Die Downloads sind trotzdem komplett.

DNS SERVER AENDERNum der staatlichen Zensur zu umgehen. Sollten wir von eurem Provider geseprrt werden, nutzt den TOR BROWSER oder ändert euren DNS SERVER.

Filmwünsche können bei uns im Forum abgegeben werden

Wir Speichern Nicht




 
 
 
Top Releases
In.den.Gaengen.2018.German.A...
Oceans.8.2018.MULTi.COMPLETE...
Outlaw.King.2018.German.DL.1...
Outlaw.King.2018.German.DL.7...
Ploetzlich.Papa.2016.German....
Gun.City.2018.German.AC3.108...
Ant.Man.and.the.Wasp.2018.Ge...
Ant.Man.and.the.Wasp.2018.Ge...
Ant.Man.and.the.Wasp.2018.Ge...
Star.Wars.Episode.VIII.Die.l...

Cinedubs
Predator.Upgrade.German.DL.A...
Predator.Upgrade.German.DL.A...
10×10.2018.German.AC3D.DL.1...
10×10.2018.German.AC3D.DL.7...
Sicario.2.German.DL.AC3.Dubb...
Sicario.2.German.DL.AC3.Dubb...
Hotel.Artemis.German.DL.AC3....
Hotel.Artemis.German.DL.AC3....
Mission.Impossible.Fallout.2...
Mission.Impossible.Fallout.2...

Neuerscheinungen 2017-18
Appgefahren.Alles.ist.moegli...
Bent.Korruption.kennt.keine....
Bent.Korruption.kennt.keine....
Cut.Shoot.Kill.2017.German.D...
Cut.Shoot.Kill.2017.German.7...
Rambo.2.Der.Auftrag.1985.MUL...
The.Boys.from.Brazil.1978.MU...
Rambo.III.1988.MULTI.COMPLET...
Rambo.First.Blood.1982.COMPL...
Dead.Men.2018.COMPLETE.BLURA...

XXX
Daring.Addiction.XXX.1080p.W...
Cheat.Beat.XXX.1080p.WEBRip....
Cheat.Beat.XXX.720p.WEBRip.M...
Daring.Addiction.XXX.720p.WE...
BustyArianna.18.07.05.Ariann...
BangBros18.18.10.30.Sophia.L...
Bang.RealTeens.18.10.29.Vina...
Babes.18.10.31.Ivy.Wolfe.Unm...
The.Game.XXX.1080p.WEBRip.MP...
TheLifeErotic.18.10.30.Lucy....
TonightsGirlfriend.18.10.31....
ATKGirlfriends.18.10.28.Khlo...
TwistysHard.18.10.31.Kimmy.G...
BustyArianna.18.07.23.Ariann...
BustyArianna.18.07.14.The.Ot...
The.Game.XXX.720p.WEBRip.MP4...
BustyArianna.18.07.29.Ariann...
ATKHairy.18.10.31.Andy.Moon....
AmateurCFNM.18.10.30.Ashley....
TheLifeErotic.18.10.28.Raisa...

3D
Die.Unglaublichen.2.3D.2018....
Die.Unglaublichen.2.2018.3D....
Die.Unglaublichen.2.2018.3D....
Sharknado.6.The.Last.One.3D....
Deep.Kleine.Helden.der.Tiefs...
Deep.3D.2017.MULTI.COMPLETE....
Detective.Dee.und.die.Legend...
Detective.Dee.und.die.Legend...
Skyscraper.3D.German.DL.AC3....
Ant-Man.and.the.Wasp.2018.3D...
Jurassic.World.Das.gefallene...
Jurassic.World.Das.gefallene...
Best.of.3D.vol.10.-.12.GERMA...
Die.Biene.Maja.2.Die.Honigsp...
Sharknado.6.The.Last.One.3D....

Old_Stuff
Detective.Dee.und.das.Geheim...
Detective.Dee.Und.Der.Fluch....
Ghost.Rider.Spirit.of.Vengea...
Species.IV.Das.Erwachen.2007...
Species.IV.Das.Erwachen.2007...
Hotel.Transsilvanien.2012.Ge...
The.Dead.2010.German.DL.1080...
The.Dead.2.India.2013.German...
Britney.Spears.Live.The.Femm...
Buffy.The.Vampire.Slayer.199...
IMAX.Ride.Around.The.World.2...
Schimanski.-.Duisburg.Ruhror...
Akte.X.S02.German.DTS.DL.108...
How.I.Met.Your.Mother.S02.Ge...
Akte.X.S01.German.DTS.DL.108...

Filme
The.Sinner.S02.COMPLETE.Germ...
The.Sinner.S02.COMPLETE.Germ...
Beat.S01.COMPLETE.German.DD+...
Beat.S01.COMPLETE.German.DD+...
Die.Simpsons.S29.GERMAN.DUBB...
iZombie.S04.German.DD51.Dubb...
iZombie.S04.German.DD51.Dubb...
Humans.S03.German.DD20.Dubbe...
Krypton.S01.German.DD51.Dubb...
The.Underdog.Knight.2008.Ger...
The.Undead.Strigoi.2009.Germ...
The.Twilight.Werewolf.2010.G...
The.TV.Set.2006.German.DL.10...
Suits.S01-S06.COMPLETE.Germa...
The.Zero.Hour.2010.German.10...
Matrix.Revolutions.USA.2003....
Formel.1.Saison.2018.GERMAN....
Shopaholic.Die.Schnaeppchenj...
Zulu.Dawn.Die.letzte.Offensi...
Das.Blutbiest.1968.German.DL...
Fight.Club.REMASTERED.1999.G...
42.Die.wahre.Geschichte.eine...
Revenge.Eine.gefaehrliche.Af...
Revenge.Eine.gefaehrliche.Af...

 
 
Outlaw.King.2018.German.DL.1080p.WEB.x264.iNTERNAL-BiGiNT

Jahr: 2018
Genre: Action, Biografie, Drama
Sprache: Deutsch AC3 | Englisch AC3
Laufzeit: 2h 1mn
Bitrate: 6 509 Kbps
Format: MKV
Größe: 5.53 GiB
Release:

Beschreibung:

Im Schottland des 14. Jahrhunderts erlangt Robert Bruce die Krone und führt einen erbitterten Aufstand an, um sein Land von der englischen Herrschaft zu befreien.



Complete name                            : outlaw.king.2018.german.dl.1080p.web.x264.internal-bigint.mkv
Format                                   : Matroska
Format version                           : Version 4 / Version 2
File size                                : 5.53 GiB
Duration                                 : 2h 1mn
Overall bit rate mode                    : Variable
Overall bit rate                         : 6 509 Kbps
Encoded date                             : UTC 2018-11-09 11:45:11
Writing application                      : mkvmerge v22.0.0 ('At The End Of The World') 64-bit
Writing library                          : libebml v1.3.5 + libmatroska v1.4.8
DURATION                                 : 01:59:44.625000000
NUMBER_OF_FRAMES                         : 1387
NUMBER_OF_BYTES                          : 43934
_STATISTICS_WRITING_APP                  : mkvmerge v22.0.0 ('At The End Of The World') 64-bit
_STATISTICS_WRITING_DATE_UTC             : 2018-11-09 11:45:11
_STATISTICS_TAGS                         : BPS DURATION NUMBER_OF_FRAMES NUMBER_OF_BYTES

Video
ID                                       : 1
Format                                   : AVC
Format/Info                              : Advanced Video Codec
Format profile                           : Main@L4.0
Format settings, CABAC                   : Yes
Format settings, ReFrames                : 3 frames
Codec ID                                 : V_MPEG4/ISO/AVC
Duration                                 : 2h 1mn
Bit rate mode                            : Variable
Bit rate                                 : 5 800 Kbps
Maximum bit rate                         : 8 700 Kbps
Width                                    : 1 920 pixels
Height                                   : 1 080 pixels
Display aspect ratio                     : 16:9
Frame rate mode                          : Constant
Frame rate                               : 24.000 fps
Color space                              : YUV
Chroma subsampling                       : 4:2:0
Bit depth                                : 8 bits
Scan type                                : Progressive
Bits/(Pixel*Frame)                       : 0.117
Stream size                              : 4.77 GiB (86%)
Writing library                          : x264 core 148 r2715 7e75228
Encoding settings                        : cabac=1 / ref=3 / deblock=1:0:0 / analyse=0x1:0x111 / me=umh / subme=10 / psy=1 / psy_rd=1.00:0.00 / mixed_ref=1 / me_range=24 / chroma_me=1 / trellis=2 / 8x8dct=0 / cqm=0 / deadzone=21,11 / fast_pskip=1 / chroma_qp_offset=-2 / threads=8 / lookahead_threads=1 / sliced_threads=0 / nr=0 / decimate=1 / interlaced=0 / bluray_compat=0 / stitchable=1 / constrained_intra=0 / bframes=2 / b_pyramid=0 / b_adapt=2 / b_bias=0 / direct=3 / weightb=1 / open_gop=0 / weightp=2 / keyint=48 / keyint_min=25 / scenecut=0 / intra_refresh=0 / rc_lookahead=48 / rc=2pass / mbtree=1 / bitrate=5800 / ratetol=1.0 / qcomp=0.50 / qpmin=6 / qpmax=51 / qpstep=4 / cplxblur=20.0 / qblur=0.5 / vbv_maxrate=8700 / vbv_bufsize=11600 / nal_hrd=vbr / filler=0 / ip_ratio=1.40 / aq=1:1.00
Default                                  : Yes
Forced                                   : No

Audio #1
ID                                       : 2
Format                                   : AC-3
Format/Info                              : Audio Coding 3
Mode extension                           : CM (complete main)
Format settings, Endianness              : Big
Codec ID                                 : A_AC3
Duration                                 : 2h 1mn
Bit rate mode                            : Constant
Bit rate                                 : 384 Kbps
Channel(s)                               : 6 channels
Channel positions                        : Front: L C R, Side: L R, LFE
Sampling rate                            : 48.0 KHz
Bit depth                                : 16 bits
Compression mode                         : Lossy
Stream size                              : 334 MiB (6%)
Language                                 : German
Default                                  : Yes
Forced                                   : No

Audio #2
ID                                       : 3
Format                                   : AC-3
Format/Info                              : Audio Coding 3
Mode extension                           : CM (complete main)
Format settings, Endianness              : Big
Codec ID                                 : A_AC3
Duration                                 : 2h 1mn
Bit rate mode                            : Constant
Bit rate                                 : 384 Kbps
Channel(s)                               : 6 channels
Channel positions                        : Front: L C R, Side: L R, LFE
Sampling rate                            : 48.0 KHz
Bit depth                                : 16 bits
Compression mode                         : Lossy
Stream size                              : 334 MiB (6%)
Language                                 : English
Default                                  : No
Forced                                   : No

Text #1
ID                                       : 4
Format                                   : UTF-8
Codec ID                                 : S_TEXT/UTF8
Codec ID/Info                            : UTF-8 Plain Text
Title                                    : Forced
Language                                 : German
Default                                  : Yes
Forced                                   : Yes

Text #2
ID                                       : 5
Format                                   : UTF-8
Codec ID                                 : S_TEXT/UTF8
Codec ID/Info                            : UTF-8 Plain Text
Title                                    : Deutsch
Language                                 : German
Default                                  : No
Forced                                   : No

Text #3
ID                                       : 6
Format                                   : UTF-8
Codec ID                                 : S_TEXT/UTF8
Codec ID/Info                            : UTF-8 Plain Text
Title                                    : Englisch (CC)
Language                                 : English
Default                                  : No
Forced                                   : No


Download:
Share Online Share OnlineShare OnlineShare Online
 

Kommentare