Filecrypt zeigt vereinzelt Files als "n/a". Die Downloads sind trotzdem komplett.

DNS SERVER AENDERNum der staatlichen Zensur zu umgehen. Sollten wir von eurem Provider geseprrt werden, nutzt den TOR BROWSER oder ändert euren DNS SERVER.

Filmwünsche können bei uns im Forum abgegeben werden

Wir Speichern Nicht




 
 
 
Top Releases
Hereditary.Das.Vermaechtnis....
Hotel.Transsilvanien.3.Ein.M...
Hereditary.2018.MULTi.COMPLE...
Ant-Man.and.the.Wasp.2018.Ge...
Meine.Weihnachtsliebe.2016.G...
Meine.Weihnachtsliebe.2016.G...
Ein.Weihnachtswunder.24.Tuer...
Ein.Weihnachtswunder.24.Tuer...
Weihnachtszauber.Ein.Kuss.ko...
Weihnachtszauber.Ein.Kuss.ko...

Cinedubs
Slender.Man.2018.GERMAN.DL.A...
Slender.Man.2018.GERMAN.DL.A...
Bad.Spies.2018.German.AC3MD....
MEG.Biss.bald.2018.German.AC...
MEG.Biss.bald.2018.German.AC...
Bad.Spies.2018.German.AC3MD....
Bad.Spies.2018.German.AC3MD....
Searching.2018.German.AC3MD....
Searching.2018.German.AC3MD....
211.Cops.Under.Fire.2018.Ger...

Neuerscheinungen 2017-18
Men.at.Work.1990.German.DL.1...
Das.ist.erst.der.Anfang.Just...
Das.ist.erst.der.Anfang.Miss...
Transit.2018.German.DTS.1080...
Transit.2018.German.DTS.720p...
The.Walking.Deceased.Die.Nac...
The.Walking.Deceased.Die.Nac...
Das.ist.erst.der.Anfang.Miss...
The.Jurassic.Games.2018.GERM...
The.Jurassic.Games.2018.GERM...

XXX
SpyFam.18.10.01.Chloe.Temple...
MistressT.18.06.05.Pantyhose...
DaneJones.18.10.02.Jasmine.W...
KarupsPC.18.10.03.Victoria.J...
MetArtX.18.10.02.Sybil.A.Col...
FemaleFakeTaxi.18.10.05.Nath...
FakeAgent.18.10.04.Kizzy.Six...
MySistersHotFriend.18.10.03....
MistressT.18.04.03.You.Disgu...
GotMylf.18.10.04.Pristine.Ed...
HouseOfTaboo.18.10.05.Alice....
MistressT.18.05.22.Tiny.Dick...
MistressT.18.06.30.Evil.Step...
PornstarsLikeItBig.18.10.04....
PlayboyPlus.18.10.02.Joelina...
RylskyArt.18.10.01.Alexandra...
GangbangCreampie.18.10.05.G1...
EvilAngel.Young.Hot.Ass.XXX....
Cosmid.18.10.01.Eva.Ditov.Co...
TeensLoveHugeCocks.18.10.05....

3D
Ant-Man.and.the.Wasp.2018.3D...
Jurassic.World.Das.gefallene...
Jurassic.World.Das.gefallene...
Best.of.3D.vol.10.-.12.GERMA...
Die.Biene.Maja.2.Die.Honigsp...
Sharknado.6.The.Last.One.3D....
Solo.A.Star.Wars.Story.3D.20...
Solo.A.Star.Wars.Story.3D.20...
Die.Biene.Maja.2.Die.Honigsp...
Avengers.Infinity.War.3D.201...
Avengers.Infinity.War.3D.201...
Rampage.Big.Meets.Bigger.3D....
Rampage.Big.Meets.Bigger.3D....
Rampage.Big.Meets.Bigger.3D....
Winter.Games.3D.2013.DUAL.CO...

Old_Stuff
Species.IV.Das.Erwachen.2007...
Species.IV.Das.Erwachen.2007...
Hotel.Transsilvanien.2012.Ge...
The.Dead.2010.German.DL.1080...
The.Dead.2.India.2013.German...
Britney.Spears.Live.The.Femm...
Buffy.The.Vampire.Slayer.199...
IMAX.Ride.Around.The.World.2...
Schimanski.-.Duisburg.Ruhror...
Akte.X.S02.German.DTS.DL.108...
How.I.Met.Your.Mother.S02.Ge...
Akte.X.S01.German.DTS.DL.108...
Den.Himmel.gibts.echt.DL.108...
Vikings.S02.German.DL.1080p....
Be.Kind.Rewind.Abgedreht.200...

Filme
Ein.Geschenk.fuers.Leben.200...
Ein.goettliches.Paar.Rab.Ne....
Ein.griechischer.Sommer.Germ...
Ein.gutes.Herz.German.DTS.DL...
Hereditary.Das.Vermaechtnis....
Men.at.Work.1990.German.720p...
Young.Sheldon.S01.GERMAN.DUB...
Young.Sheldon.S01.GERMAN.DUB...
Animal.Kingdom.S03.German.DD...
Legends.of.Tomorrow.S03.Germ...
Ein.ganz.gewoehnlicher.Dieb....
The.Haunting.of.Whaley.House...
The.Hidden.Blade.2004.German...
The.Hike.Ausflug.ins.Grauen....
The.Hitmen.Kill.Em.All.2014....
Inside.Man.2006.German.DTS.D...
Ein.freudiges.Ereignis.2011....
The.Holding.2011.German.DL.1...
The.Heavy.Der.letzte.Job.201...
The.Hollow.Mord.in.Mississip...
Inglourious.Basterds.German....
Push.2009.OPEN.MATTE.German....
Hawaii.2013.COMPLETE.UHD.BLU...
Verrueckt.nach.Mary.Extended...

 
 
Ant-Man.and.the.Wasp.2018.3D.HSBS.German.Dubbed.RETAiL.DTS.DL.1080p.BluRay.x264-miHD

Jahr: 2018
Genre: Action | Abenteuer | Sci-Fi
Sprache: Deutsch DTS | Englisch DTS
Laufzeit: 1h 58mn
Bitrate: 7 154 Kbps
Format: MKV
Größe: 5.90 GiB
Release:

Beschreibung:
Seit den Ereignissen von „The First Avenger: Civil War“ steht Scott Lang alias Ant-Man (Paul Rudd), der im Spezialanzug seine Körpergröße massiv verändern kann, unter Hausarrest. Die meiste Zeit verbringt er nun einfach damit, ein guter Vater für seine Tochter Cassie (Abby Ryder Fortson) zu sein. Doch kurz vor Ablauf seiner Strafe wird er von seinem Mentor Dr. Hank Pym (Michael Douglas) und dessen Tochter Hope van Dyne (Evangeline Lilly) aus seinem Alltagstrott und wieder zurück ins Abenteuer gerissen. Scott soll Hank und Hope bei der Suche nach Hopes Mutter Janet (Michelle Pfeiffer) helfen, die vor langer Zeit bei einer gefährlichen Mission im subatomaren Raum verschwand. Doch bei ihrer Mission geraten Scott, Hope und Hank mit der mysteriösen Ghost (Hannah John-Kamen) aneinander, die ihre ganz eigenen Ziele verfolgt...


Complete name                            : miHD-wasp.hsbs-1080.mkv
Format                                   : Matroska
Format version                           : Version 4 / Version 2
File size                                : 5.90 GiB
Duration                                 : 1h 58mn
Overall bit rate                         : 7 154 Kbps
Movie name                               : Wasp HSBS
Encoded date                             : UTC 2018-10-17 15:45:44
Writing application                      : mkvmerge v25.0.0 ('Prog Noir') 64-bit
Writing library                          : libebml v1.3.6 + libmatroska v1.4.9
DURATION                                 : 00:06:44.950000000
NUMBER_OF_FRAMES                         : 4
NUMBER_OF_BYTES                          : 160
_STATISTICS_WRITING_APP                  : mkvmerge v25.0.0 ('Prog Noir') 64-bit
_STATISTICS_WRITING_DATE_UTC             : 2018-10-17 15:45:44
_STATISTICS_TAGS                         : BPS DURATION NUMBER_OF_FRAMES NUMBER_OF_BYTES

Video
ID                                       : 1
Format                                   : AVC
Format/Info                              : Advanced Video Codec
Format profile                           : High@L4.1
MultiView_Count                          : 2
MultiView_Layout                         : Side by Side (left eye first)
Format settings, CABAC                   : Yes
Format settings, ReFrames                : 4 frames
Codec ID                                 : V_MPEG4/ISO/AVC
Duration                                 : 1h 58mn
Bit rate                                 : 4 735 Kbps
Width                                    : 1 920 pixels
Height                                   : 804 pixels
Display aspect ratio                     : 16:9
Original display aspect ratio            : 2.40:1
Frame rate mode                          : Constant
Frame rate                               : 23.976 fps
Color space                              : YUV
Chroma subsampling                       : 4:2:0
Bit depth                                : 8 bits
Scan type                                : Progressive
Bits/(Pixel*Frame)                       : 0.128
Stream size                              : 3.91 GiB (66%)
Writing library                          : x264 core 155 r2901 7d0ff22
Encoding settings                        : cabac=1 / ref=3 / deblock=1:0:0 / analyse=0x3:0x113 / me=hex / subme=7 / psy=1 / psy_rd=1.00:0.00 / mixed_ref=1 / me_range=16 / chroma_me=1 / trellis=1 / 8x8dct=1 / cqm=0 / deadzone=21,11 / fast_pskip=1 / chroma_qp_offset=-2 / threads=12 / lookahead_threads=2 / sliced_threads=0 / nr=0 / decimate=1 / interlaced=0 / bluray_compat=0 / constrained_intra=0 / bframes=3 / b_pyramid=2 / b_adapt=1 / b_bias=0 / direct=1 / weightb=1 / open_gop=0 / weightp=2 / keyint=250 / keyint_min=23 / scenecut=40 / intra_refresh=0 / rc_lookahead=40 / rc=crf / mbtree=1 / crf=17.0 / qcomp=0.60 / qpmin=0 / qpmax=69 / qpstep=4 / vbv_maxrate=62500 / vbv_bufsize=78125 / crf_max=0.0 / nal_hrd=none / filler=0 / frame-packing=3 / ip_ratio=1.40 / aq=1:1.00
Default                                  : Yes
Forced                                   : No
Matrix coefficients                      : BT.709

Audio #1
ID                                       : 2
Format                                   : DTS
Format/Info                              : Digital Theater Systems
Mode                                     : 16
Format settings, Endianness              : Big
Codec ID                                 : A_DTS
Duration                                 : 1h 58mn
Bit rate mode                            : Constant
Bit rate                                 : 768 Kbps
Channel(s)                               : 6 channels
Channel positions                        : Front: L C R, Side: L R, LFE
Sampling rate                            : 48.0 KHz
Bit depth                                : 16 bits
Compression mode                         : Lossy
Stream size                              : 649 MiB (11%)
Language                                 : German
Default                                  : Yes
Forced                                   : No

Audio #2
ID                                       : 3
Format                                   : DTS
Format/Info                              : Digital Theater Systems
Mode                                     : 16
Format settings, Endianness              : Big
Codec ID                                 : A_DTS
Duration                                 : 1h 58mn
Bit rate mode                            : Constant
Bit rate                                 : 1 509 Kbps
Channel(s)                               : 6 channels
Channel positions                        : Front: L C R, Side: L R, LFE
Sampling rate                            : 48.0 KHz
Bit depth                                : 24 bits
Compression mode                         : Lossy
Stream size                              : 1.25 GiB (21%)
Language                                 : English
Default                                  : No
Forced                                   : No

Text
ID                                       : 4
Format                                   : ASS
Codec ID                                 : S_TEXT/ASS
Codec ID/Info                            : Advanced Sub Station Alpha
Compression mode                         : Lossless
Title                                    : forced
Language                                 : German
Default                                  : Yes
Forced                                   : Yes


Download:
Share Online Share OnlineShare OnlineShare Online
 

Kommentare